<?xml version="1.0" standalone="no"?>
<!DOCTYPE svg PUBLIC "-//W3C//DTD SVG 1.1//EN" "http://www.w3.org/Graphics/SVG/1.1/DTD/svg11.dtd">
<svg xmlns="http://www.w3.org/2000/svg">
<metadata>IconScout</metadata>
<defs>
<font id="unicons-3" horiz-adv-x="1000" >
<font-face font-family="unicons-3" font-weight="400" font-stretch="normal" units-per-em="1000" ascent="850" descent="-150" />
<missing-glyph horiz-adv-x="1000" />
<glyph glyph-name="bag-alt" unicode="&#xe8b4;" d="M792 579h-125v42a125 125 0 0 1-125 125h-84a125 125 0 0 1-125-125v-42h-125a125 125 0 0 1-125-125v-375a125 125 0 0 1 125-125h584a125 125 0 0 1 125 125v375a125 125 0 0 1-125 125z m-375 42a42 42 0 0 0 41 42h84a42 42 0 0 0 41-42v-42h-166z m416-542a42 42 0 0 0-41-41h-584a42 42 0 0 0-41 41v229a905 905 0 0 1 333-63 906 906 0 0 1 333 63z m0 321a829 829 0 0 0-666 0v54a42 42 0 0 0 41 42h584a42 42 0 0 0 41-42z" horiz-adv-x="1000" />

<glyph glyph-name="moneybag" unicode="&#xe8b5;" d="M500 392a125 125 0 1 1 125-125 125 125 0 0 1-125 125z m0-167a42 42 0 1 0 42 42 42 42 0 0 0-42-42z m292 375h-125v42a125 125 0 0 1-125 125h-84a125 125 0 0 1-125-125v-42h-125a125 125 0 0 1-125-125v-417a125 125 0 0 1 125-125h584a125 125 0 0 1 125 125v417a125 125 0 0 1-125 125z m-375 42a42 42 0 0 0 41 41h84a42 42 0 0 0 41-41v-42h-166z m-250-167a42 42 0 0 0 41 42h42a83 83 0 0 0-83-84z m41-458a42 42 0 0 0-41 41v42a83 83 0 0 0 83-83z m625 41a42 42 0 0 0-41-41h-42a83 83 0 0 0 83 83z m0 125a167 167 0 0 1-166-166h-334a167 167 0 0 1-166 166v167a167 167 0 0 1 166 167h334a167 167 0 0 1 166-167z m0 250a83 83 0 0 0-83 84h42a42 42 0 0 0 41-42z" horiz-adv-x="1000" />

<glyph glyph-name="bag" unicode="&#xe8b6;" d="M792 600h-125v42a83 83 0 0 1-84 83h-166a83 83 0 0 1-84-83v-42h-125a125 125 0 0 1-125-125v-375a125 125 0 0 1 125-125h584a125 125 0 0 1 125 125v375a125 125 0 0 1-125 125z m-375 42h166v-42h-166z m416-542a42 42 0 0 0-41-42h-584a42 42 0 0 0-41 42v234l195-67a50 50 0 0 1 13 0h250a50 50 0 0 1 13 2l195 65z m0 322l-215-72h-236l-215 72v53a42 42 0 0 0 41 42h584a42 42 0 0 0 41-42z" horiz-adv-x="1000" />

<glyph glyph-name="money-insert" unicode="&#xe8b7;" d="M436 600l22 25v-150a42 42 0 0 1 84 0v150l22-23a42 42 0 0 1 61-2 42 42 0 0 1 0 59l-95 96a42 42 0 0 1-14 8 42 42 0 0 1-32 0 42 42 0 0 1-14-8l-95-94a42 42 0 0 1 61-61z m64-250a125 125 0 1 1 125-125 125 125 0 0 1-125 125z m0-167a42 42 0 1 0 42 42 42 42 0 0 0-42-42z m-292 42a42 42 0 1 1 42 42 42 42 0 0 1-42-42z m584 0a42 42 0 1 1-42-42 42 42 0 0 1 42 42z m41 292h-166a42 42 0 0 1 0-84h166a42 42 0 0 0 42-41v-334a42 42 0 0 0-42-41h-666a42 42 0 0 0-42 41v334a42 42 0 0 0 42 41h166a42 42 0 0 1 0 84h-166a125 125 0 0 1-125-125v-334a125 125 0 0 1 125-125h666a125 125 0 0 1 125 125v334a125 125 0 0 1-125 125z" horiz-adv-x="1000" />

<glyph glyph-name="chart-line" unicode="&#xe8b8;" d="M292 183a63 63 0 0 1 62 63 32 32 0 0 1 0 6l116 116 10 0 10 0 67-67s0-2 0-3a63 63 0 1 1 125 0v3l151 153h0a63 63 0 1 1-62 63 32 32 0 0 1 0-7l-151-150h-6l-72 73a62 62 0 0 1-125 0l-125-125h0a63 63 0 0 1 0-125z m562-166h-708v708a42 42 0 0 1-84 0v-750a42 42 0 0 1 42-42h750a42 42 0 0 1 0 84z" horiz-adv-x="1000" />

<glyph glyph-name="dollar-sign-alt" unicode="&#xe8b9;" d="M583 392h-166a83 83 0 0 0 0 166h208a42 42 0 0 0 42-41 42 42 0 0 1 83 0 125 125 0 0 1-125 125h-83v83a42 42 0 0 1-84 0v-83h-41a167 167 0 0 1 0-334h166a83 83 0 0 0 0-166h-208a42 42 0 0 0-42 41 42 42 0 0 1-83 0 125 125 0 0 1 125-125h83v-83a42 42 0 0 1 84 0v83h41a167 167 0 0 1 0 334z" horiz-adv-x="1000" />

<glyph glyph-name="euro" unicode="&#xe8ba;" d="M800 125a250 250 0 0 0-197-108c-112 0-209 83-250 208h230a42 42 0 0 1 0 83h-248c0 14-2 28-2 42s0 28 2 42h248a42 42 0 0 1 0 83h-230c42 125 138 208 250 208a250 250 0 0 0 197-108 42 42 0 1 1 67 50 330 330 0 0 1-264 142c-157 0-292-119-337-292h-99a42 42 0 0 1 0-83h85c0-14 0-28 0-42s0-28 0-42h-85a42 42 0 0 1 0-83h99c46-173 180-292 337-292a330 330 0 0 1 264 142 42 42 0 0 1-67 50z" horiz-adv-x="1000" />

<glyph glyph-name="usd-circle" unicode="&#xe8bb;" d="M458 475h167a42 42 0 0 1 0 83h-83v42a42 42 0 0 1-84 0v-42a125 125 0 0 1 0-250h84a42 42 0 0 0 0-83h-167a42 42 0 0 1 0-83h83v-42a42 42 0 0 1 84 0v42a125 125 0 0 1 0 250h-84a42 42 0 0 0 0 83z m42 333a458 458 0 1 1 458-458 458 458 0 0 1-458 458z m0-833a375 375 0 1 0 375 375 375 375 0 0 0-375-375z" horiz-adv-x="1000" />

<glyph glyph-name="euro-circle" unicode="&#xe8bc;" d="M500 808a458 458 0 1 1 458-458 458 458 0 0 1-458 458z m0-833a375 375 0 1 0 375 375 375 375 0 0 0-375-375z m25 555a139 139 0 0 0 109-57 42 42 0 0 1 58-8 42 42 0 0 1 8 59 222 222 0 0 1-175 90 232 232 0 0 1-214-160h-61a42 42 0 0 1 0-83h42c0-7 0-14 0-21s0-14 0-21h-42a42 42 0 0 1 0-83h61a232 232 0 0 1 214-160 222 222 0 0 1 175 90 42 42 0 1 1-66 49 139 139 0 0 0-109-57 143 143 0 0 0-122 78h97a42 42 0 0 1 0 83h-123a176 176 0 0 0-2 21 176 176 0 0 0 2 21h123a42 42 0 0 1 0 83h-97a143 143 0 0 0 122 76z" horiz-adv-x="1000" />

<glyph glyph-name="usd-square" unicode="&#xe8bd;" d="M458 475h167a42 42 0 0 1 0 83h-83v42a42 42 0 0 1-84 0v-42a125 125 0 0 1 0-250h84a42 42 0 0 0 0-83h-167a42 42 0 0 1 0-83h83v-42a42 42 0 0 1 84 0v42a125 125 0 0 1 0 250h-84a42 42 0 0 0 0 83z m334 292h-584a125 125 0 0 1-125-125v-584a125 125 0 0 1 125-125h584a125 125 0 0 1 125 125v584a125 125 0 0 1-125 125z m41-709a42 42 0 0 0-41-41h-584a42 42 0 0 0-41 41v584a42 42 0 0 0 41 41h584a42 42 0 0 0 41-41z" horiz-adv-x="1000" />

<glyph glyph-name="money-bill-stack" unicode="&#xe8be;" d="M833 808h-666a125 125 0 0 1-125-125v-666a125 125 0 0 1 125-125h666a125 125 0 0 1 125 125v666a125 125 0 0 1-125 125z m-500-833h-166a42 42 0 0 0-42 42v49a125 125 0 0 1 42-8h166z m0 167h-166a42 42 0 0 0-42 41v50a125 125 0 0 1 42-8h166z m0 166h-166a42 42 0 0 0-42 42v333a42 42 0 0 0 42 42h166z m250-333h-166v250h166z m0 333h-166v417h166z m292-291a42 42 0 0 0-42-42h-166v83h166a125 125 0 0 1 42 8z m0 166a42 42 0 0 0-42-41h-166v83h166a125 125 0 0 1 42 8z m0 167a42 42 0 0 0-42-42h-166v417h166a42 42 0 0 0 42-42z m-125 208a42 42 0 1 1 42-41 42 42 0 0 1-42 41z m-500-83a42 42 0 1 1-42 42 42 42 0 0 1 42-42z" horiz-adv-x="1000" />

<glyph glyph-name="dollar-alt" unicode="&#xe8bf;" d="M583 392h-41v166h83a42 42 0 0 0 42-41 42 42 0 0 1 83 0 125 125 0 0 1-125 125h-83v83a42 42 0 0 1-84 0v-83h-41a167 167 0 0 1 0-334h41v-166h-83a42 42 0 0 0-42 41 42 42 0 0 1-83 0 125 125 0 0 1 125-125h83v-83a42 42 0 0 1 84 0v83h41a167 167 0 0 1 0 334z m-125 0h-41a83 83 0 0 0 0 166h41z m125-250h-41v166h41a83 83 0 0 0 0-166z" horiz-adv-x="1000" />

<glyph glyph-name="money-withdraw" unicode="&#xe8c0;" d="M500 350a125 125 0 1 1 125-125 125 125 0 0 1-125 125z m0-167a42 42 0 1 0 42 42 42 42 0 0 0-42-42z m-30 262a42 42 0 0 1 14-8 39 39 0 0 1 32 0 42 42 0 0 1 14 8l95 94a42 42 0 1 1-61 61l-22-25v150a42 42 0 0 1-84 0v-150l-22 25a42 42 0 0 1-61-61z m322-220a42 42 0 1 1-42-42 42 42 0 0 1 42 42z m41 292h-125a42 42 0 0 1 0-84h125a42 42 0 0 0 42-41v-334a42 42 0 0 0-42-41h-666a42 42 0 0 0-42 41v334a42 42 0 0 0 42 41h125a42 42 0 0 1 0 84h-125a125 125 0 0 1-125-125v-334a125 125 0 0 1 125-125h666a125 125 0 0 1 125 125v334a125 125 0 0 1-125 125z m-625-292a42 42 0 1 1 42 42 42 42 0 0 1-42-42z" horiz-adv-x="1000" />

<glyph glyph-name="credit-card" unicode="&#xe8c1;" d="M292 225h125a42 42 0 0 1 0 83h-125a42 42 0 0 1 0-83z m500 417h-584a125 125 0 0 1-125-125v-375a125 125 0 0 1 125-125h584a125 125 0 0 1 125 125v375a125 125 0 0 1-125 125z m41-500a42 42 0 0 0-41-42h-584a42 42 0 0 0-41 42v250h666z m0 333h-666v42a42 42 0 0 0 41 41h584a42 42 0 0 0 41-41z" horiz-adv-x="1000" />

<glyph glyph-name="money-bill" unicode="&#xe8c2;" d="M250 392a42 42 0 1 1 42-42 42 42 0 0 1-42 42z m500 0a42 42 0 1 1 42-42 42 42 0 0 1-42 42z m83 250h-666a125 125 0 0 1-125-125v-334a125 125 0 0 1 125-125h666a125 125 0 0 1 125 125v334a125 125 0 0 1-125 125z m42-459a42 42 0 0 0-42-41h-666a42 42 0 0 0-42 41v334a42 42 0 0 0 42 41h666a42 42 0 0 0 42-41z m-375 292a125 125 0 1 1 125-125 125 125 0 0 1-125 125z m0-167a42 42 0 1 0 42 42 42 42 0 0 0-42-42z" horiz-adv-x="1000" />

<glyph glyph-name="bitcoin-sign" unicode="&#xe8c3;" d="M792 475a167 167 0 0 1-167 167v83a42 42 0 0 1-83 0v-83h-84v83a42 42 0 0 1-83 0v-83h-125a42 42 0 0 1 0-84h42v-416h-42a42 42 0 0 1 0-84h125v-83a42 42 0 0 1 83 0v83h84v-83a42 42 0 0 1 83 0v83a167 167 0 0 1 109 292 167 167 0 0 1 58 125z m-167-333h-250v166h250a83 83 0 0 0 0-166z m0 250h-250v166h250a83 83 0 0 0 0-166z" horiz-adv-x="1000" />

<glyph glyph-name="signal-alt-3" unicode="&#xe8c4;" d="M583 475h-166a42 42 0 0 1-42-42v-500a42 42 0 0 1 42-41h166a42 42 0 0 1 42 41v500a42 42 0 0 1-42 42z m-41-500h-84v417h84z m375 833h-167a42 42 0 0 1-42-41v-834a42 42 0 0 1 42-41h167a42 42 0 0 1 41 41v834a42 42 0 0 1-41 41z m-42-833h-83v750h83z m-625 250h-167a42 42 0 0 1-41-42v-250a42 42 0 0 1 41-41h167a42 42 0 0 1 42 41v250a42 42 0 0 1-42 42z m-42-250h-83v167h83z" horiz-adv-x="1000" />

<glyph glyph-name="receipt-alt" unicode="&#xe8c5;" d="M417 517h250a42 42 0 0 1 0 83h-250a42 42 0 0 1 0-83z m-84-167h334a42 42 0 0 1 0 83h-334a42 42 0 0 1 0-83z m0-167h334a42 42 0 0 1 0 84h-334a42 42 0 0 1 0-84z m500 584h-666a42 42 0 0 1-42-42v-750a42 42 0 0 1 67-33l86 64 86-64a42 42 0 0 1 50 0l86 64 86-64a42 42 0 0 1 50 0l86 64 86-64a42 42 0 0 1 44-4 42 42 0 0 1 23 37v750a42 42 0 0 1-42 42z m-41-709l-45 34a42 42 0 0 1-50 0l-86-65-86 65a42 42 0 0 1-50 0l-86-65-86 65a42 42 0 0 1-50 0l-45-34v625h584z" horiz-adv-x="1000" />

<glyph glyph-name="graph-bar" unicode="&#xe8c6;" d="M250 308h-167a42 42 0 0 1-41-41v-334a42 42 0 0 1 41-41h167a42 42 0 0 1 42 41v334a42 42 0 0 1-42 41z m-42-333h-83v250h83z m709 500h-167a42 42 0 0 1-42-42v-500a42 42 0 0 1 42-41h167a42 42 0 0 1 41 41v500a42 42 0 0 1-41 42z m-42-500h-83v417h83z m-292 833h-166a42 42 0 0 1-42-41v-834a42 42 0 0 1 42-41h166a42 42 0 0 1 42 41v834a42 42 0 0 1-42 41z m-41-833h-84v750h84z" horiz-adv-x="1000" />

<glyph glyph-name="analytics" unicode="&#xe8c7;" d="M208 350a42 42 0 0 1-41-42v-333a42 42 0 0 1 83 0v333a42 42 0 0 1-42 42z m209 417a42 42 0 0 1-42-42v-750a42 42 0 0 1 83 0v750a42 42 0 0 1-41 42z m416-584a42 42 0 0 1-41-41v-167a42 42 0 0 1 83 0v167a42 42 0 0 1-42 41z m-208 334a42 42 0 0 1-42-42v-500a42 42 0 0 1 84 0v500a42 42 0 0 1-42 42z" horiz-adv-x="1000" />

<glyph glyph-name="table-tennis" unicode="&#xe8c8;" d="M863 179l-68 69a39 39 0 0 0-10 44 241 241 0 0 1 23 100 15 15 0 0 1 0 4 239 239 0 0 1-44 139 590 590 0 0 1-216 184 292 292 0 0 1-333-54l-28-28a292 292 0 0 1-54-336l4-7a125 125 0 0 1-35-86 125 125 0 0 1 190-105c7-6 14-13 21-18a231 231 0 0 1 51-27l4 0c7-3 15-5 24-8l6 0a212 212 0 0 1 39-6l12 0h5l9 0c9 0 17 0 26 3h7l0 0a227 227 0 0 1 59 18 42 42 0 0 0 45-8l61-61a142 142 0 0 1 99-42 119 119 0 0 1 84 36l16 15a125 125 0 0 1 3 174z m-638-13a42 42 0 1 0 42 41 42 42 0 0 0-42-41z m130-6l-11 8a122 122 0 0 1 6 39 125 125 0 0 1-125 125c-5 0-10 0-15 0l-4 7a208 208 0 0 0 39 240l27 28a208 208 0 0 0 240 35 500 500 0 0 0 177-149z m449-99l-16-16c-17-17-44-14-67 9l-61 60a125 125 0 0 1-139 26 141 141 0 0 0-41-13 118 118 0 0 0-25-2l-14 0h-4l286 286a158 158 0 0 0-14-84h0a125 125 0 0 1 26-139l68-68a42 42 0 0 0 1-59z" horiz-adv-x="1000" />

<glyph glyph-name="bill" unicode="&#xe8c9;" d="M396 413h104a42 42 0 0 1 0 83h-42v21a42 42 0 0 1-83 0v-23a104 104 0 0 1 21-206h42a21 21 0 0 0 0-42h-105a42 42 0 0 1 0-83h42v-21a42 42 0 0 1 83 0v23a104 104 0 0 1-20 206h-42a21 21 0 0 0 0 42z m479-63h-125v375a42 42 0 0 1-21 36 42 42 0 0 1-41 0l-125-71-125 71a42 42 0 0 1-42 0l-125-71-125 71a42 42 0 0 1-42 0 42 42 0 0 1-21-36v-667a125 125 0 0 1 125-125h584a125 125 0 0 1 125 125v250a42 42 0 0 1-42 42z m-667-333a42 42 0 0 0-41 41v595l83-48a45 45 0 0 1 42 0l125 72 125-72a45 45 0 0 1 41 0l84 48v-595a125 125 0 0 1 7-41z m625 41a42 42 0 0 0-83 0v209h83z" horiz-adv-x="1000" />

<glyph glyph-name="chart-bar" unicode="&#xe8ca;" d="M875 17h-42v625a42 42 0 0 1-83 0v-625h-83v291a42 42 0 0 1-84 0v-291h-83v458a42 42 0 0 1-83 0v-458h-84v125a42 42 0 0 1-83 0v-125h-83v708a42 42 0 0 1-84 0v-750a42 42 0 0 1 42-42h750a42 42 0 0 1 0 84z" horiz-adv-x="1000" />

<glyph glyph-name="chart-growth" unicode="&#xe8cb;" d="M875 17h-42v625a42 42 0 0 1-83 0v-625h-83v458a42 42 0 0 1-84 0v-458h-83v291a42 42 0 0 1-83 0v-291h-84v125a42 42 0 0 1-83 0v-125h-83v708a42 42 0 0 1-84 0v-750a42 42 0 0 1 42-42h750a42 42 0 0 1 0 84z" horiz-adv-x="1000" />

<glyph glyph-name="chart-growth-alt" unicode="&#xe8cc;" d="M875 17h-708v83h125a42 42 0 0 1 0 83h-125v84h291a42 42 0 0 1 0 83h-291v83h458a42 42 0 0 1 0 84h-458v83h625a42 42 0 0 1 0 83h-625v42a42 42 0 0 1-84 0v-750a42 42 0 0 1 42-42h750a42 42 0 0 1 0 84z" horiz-adv-x="1000" />

<glyph glyph-name="shop" unicode="&#xe8cd;" d="M917 642h-834a42 42 0 0 1-41-42v-167a125 125 0 0 1 83-117v-383a42 42 0 0 1 42-41h666a42 42 0 0 1 42 41v383a125 125 0 0 1 83 117v167a42 42 0 0 1-41 42z m-292-84h83v-125a42 42 0 0 0-83 0z m-167 0h84v-125a42 42 0 0 0-84 0z m-166 0h83v-125a42 42 0 0 0-83 0z m-125-166a42 42 0 0 0-42 41v125h83v-125a42 42 0 0 0-41-41z m416-417h-166v83a83 83 0 0 0 166 0z m209 0h-125v83a167 167 0 0 1-334 0v-83h-125v341a132 132 0 0 1 42 25 125 125 0 0 1 167 0 125 125 0 0 1 166 0 125 125 0 0 1 167 0 132 132 0 0 1 42-25z m83 458a42 42 0 0 0-83 0v125h83z m-696 292h654a42 42 0 0 1 0 83h-654a42 42 0 0 1 0-83z" horiz-adv-x="1000" />

<glyph glyph-name="chart-bar-alt" unicode="&#xe8ce;" d="M875 17h-708v83h125a42 42 0 0 1 0 83h-125v84h458a42 42 0 0 1 0 83h-458v83h291a42 42 0 0 1 0 84h-291v83h625a42 42 0 0 1 0 83h-625v42a42 42 0 0 1-84 0v-750a42 42 0 0 1 42-42h750a42 42 0 0 1 0 84z" horiz-adv-x="1000" />

<glyph glyph-name="dollar-sign" unicode="&#xe8cf;" d="M583 392h-166a83 83 0 0 0 0 166h208a42 42 0 0 0 42-41 42 42 0 0 1 83 0 125 125 0 0 1-125 125h-83v83a42 42 0 0 1-84 0v-83h-41a167 167 0 0 1 0-334h166a83 83 0 0 0 0-166h-208a42 42 0 0 0-42 41 42 42 0 0 1-83 0 125 125 0 0 1 125-125h83v-83a42 42 0 0 1 84 0v83h41a167 167 0 0 1 0 334z" horiz-adv-x="1000" />

<glyph glyph-name="chart" unicode="&#xe8d0;" d="M500 600a42 42 0 0 1-42-42v-416a42 42 0 0 1 84 0v416a42 42 0 0 1-42 42z m-208-250a42 42 0 0 1-42-42v-166a42 42 0 0 1 83 0v166a42 42 0 0 1-41 42z m416 83a42 42 0 0 1-41-41v-250a42 42 0 0 1 83 0v250a42 42 0 0 1-42 41z m84 334h-584a125 125 0 0 1-125-125v-584a125 125 0 0 1 125-125h584a125 125 0 0 1 125 125v584a125 125 0 0 1-125 125z m41-709a42 42 0 0 0-41-41h-584a42 42 0 0 0-41 41v584a42 42 0 0 0 41 41h584a42 42 0 0 0 41-41z" horiz-adv-x="1000" />

<glyph glyph-name="briefcase" unicode="&#xe8d1;" d="M875 600h-167v42a125 125 0 0 1-125 125h-166a125 125 0 0 1-125-125v-42h-167a42 42 0 0 1-42-42v-166a125 125 0 0 1 42-93v-241a125 125 0 0 1 125-125h500a125 125 0 0 1 125 125v241a125 125 0 0 1 42 93v166a42 42 0 0 1-42 42z m-500 42a42 42 0 0 0 42 41h166a42 42 0 0 0 42-41v-42h-250z m417-584a42 42 0 0 0-42-41h-500a42 42 0 0 0-42 41v209h84v-42a42 42 0 0 1 83 0v42h250v-42a42 42 0 0 1 83 0v42h84z m41 334a42 42 0 0 0-41-42h-84v42a42 42 0 0 1-83 0v-42h-250v42a42 42 0 0 1-83 0v-42h-84a42 42 0 0 0-41 42v125h666z" horiz-adv-x="1000" />

<glyph glyph-name="bitcoin-circle" unicode="&#xe8d2;" d="M500 808a458 458 0 1 1 458-458 458 458 0 0 1-458 458z m0-833a375 375 0 1 0 375 375 375 375 0 0 0-375-375z m83 583v42a42 42 0 0 1-83 0v-42h-42v42a42 42 0 0 1-83 0v-42h-42a42 42 0 0 1 0-83h42v-250h-42a42 42 0 0 1 0-83h42v-42a42 42 0 0 1 83 0v42h42v-42a42 42 0 0 1 83 0v42a125 125 0 0 1 125 125 125 125 0 0 1-32 83 125 125 0 0 1 32 83 125 125 0 0 1-125 125z m0-333h-125v83h125a42 42 0 0 0 0-83z m0 167h-125v83h125a42 42 0 0 0 0-83z" horiz-adv-x="1000" />

<glyph glyph-name="chart-pie-alt" unicode="&#xe8d3;" d="M792 350h-292v292c0 25-17 41-42 41-208 0-375-166-375-375s167-375 375-375 375 167 375 375c0 25-16 42-41 42z m-292-329c-158-25-308 87-329 246-25 158 87 308 246 329v-288c0-25 16-41 41-41h288c-17-129-117-229-246-246z m125 746c-25 0-42-17-42-42v-250c0-25 17-42 42-42h250c25 0 42 17 42 42 0 163-130 292-292 292z m42-250v162c83-16 146-79 162-162h-162z" horiz-adv-x="1000" />

<glyph glyph-name="golf-ball" unicode="&#xe8d4;" d="M583 475a42 42 0 1 1 42-42 42 42 0 0 1-42 42z m0 125a42 42 0 1 1 42-42 42 42 0 0 1-42 42z m-83 167a417 417 0 1 1 417-417 417 417 0 0 1-417 417z m0-750a333 333 0 1 0 333 333 333 333 0 0 0-333-333z m208 500a42 42 0 1 1 42-42 42 42 0 0 1-42 42z" horiz-adv-x="1000" />

<glyph glyph-name="calculator-alt" unicode="&#xe8d5;" d="M229 517h21v-21a42 42 0 0 1 83 0v21h21a42 42 0 0 1 0 83h-21v21a42 42 0 0 1-83 0v-21h-21a42 42 0 0 1 0-83z m-26-464a42 42 0 0 1 59 0l30 30 29-30a42 42 0 0 1 59 0 42 42 0 0 1 0 59l-30 30 30 29a42 42 0 0 1-59 59l-29-30-30 30a42 42 0 0 1-59-59l30-29-30-30a42 42 0 0 1 0-59z m630 755h-666a125 125 0 0 1-125-125v-666a125 125 0 0 1 125-125h666a125 125 0 0 1 125 125v666a125 125 0 0 1-125 125z m-375-833h-291a42 42 0 0 0-42 42v291h333z m0 417h-333v291a42 42 0 0 0 42 42h291z m417-375a42 42 0 0 0-42-42h-291v333h333z m0 375h-333v333h291a42 42 0 0 0 42-42z m-229-229h125a42 42 0 0 1 0 83h-125a42 42 0 0 1 0-83z m125 437h-125a42 42 0 0 1 0-83h125a42 42 0 0 1 0 83z m-125-562h125a42 42 0 0 1 0 83h-125a42 42 0 0 1 0-83z" horiz-adv-x="1000" />

<glyph glyph-name="coins" unicode="&#xe8d6;" d="M884 350a125 125 0 0 1 33 83 125 125 0 0 1-125 125h-216a125 125 0 0 1-118 167h-250a125 125 0 0 1-125-125 125 125 0 0 1 33-83 125 125 0 0 1 0-167 125 125 0 0 1 0-167 125 125 0 0 1-33-83 125 125 0 0 1 125-125h584a125 125 0 0 1 92 208 125 125 0 0 1 0 167z m-426-292h-250a42 42 0 0 0 0 84h250a42 42 0 0 0 0-84z m0 167h-250a42 42 0 0 0 0 83h250a42 42 0 0 0 0-83z m0 167h-250a42 42 0 0 0 0 83h250a42 42 0 0 0 0-83z m0 166h-250a42 42 0 0 0 0 84h250a42 42 0 0 0 0-84z m362-488a39 39 0 0 0-28-12h-216a120 120 0 0 1 0 84h216a42 42 0 0 0 41-42 42 42 0 0 0-13-30z m0 167a39 39 0 0 0-28-12h-216a120 120 0 0 1 0 83h216a42 42 0 0 0 41-41 42 42 0 0 0-13-30z m0 167a39 39 0 0 0-28-12h-216a120 120 0 0 1 0 83h216a42 42 0 0 0 41-42 42 42 0 0 0-13-29z" horiz-adv-x="1000" />

<glyph glyph-name="map-pin-alt" unicode="&#xe8d7;" d="M458 354v-212a42 42 0 0 1 84 0v212a208 208 0 1 1-84 0z m42 329a125 125 0 1 0-125-125 125 125 0 0 0 125 125z m175-434a42 42 0 1 1-17-83c94-19 134-53 134-66 0-24-102-83-292-83s-292 59-292 83c0 13 40 47 134 68a42 42 0 1 1-17 83c-127-29-200-84-200-151 0-110 189-167 375-167s375 57 375 167c0 67-73 122-200 149z" horiz-adv-x="1000" />

<glyph glyph-name="lightbulb" unicode="&#xe8d8;" d="M727 331a292 292 0 0 1-42 409 295 295 0 0 1-246 59 292 292 0 0 1-167-465 198 198 0 0 0 45-119v-12a83 83 0 0 1-25-58v-84a83 83 0 0 1 83-83v-42a42 42 0 0 1 83 0v42h84v-42a42 42 0 0 1 83 0v42a83 83 0 0 1 83 83v84a83 83 0 0 1-23 58v18a177 177 0 0 0 42 110z m-352-270v84h250v-84z m287 322a258 258 0 0 1-61-155h-203a278 278 0 0 1-62 157 208 208 0 0 0 118 334 208 208 0 0 0 254-205 205 205 0 0 0-46-131z" horiz-adv-x="1000" />

<glyph glyph-name="map-marker-question" unicode="&#xe8d9;" d="M518 304l-7 4a42 42 0 0 1-45-9 36 36 0 0 1-9-13 42 42 0 0 1-4-16 42 42 0 0 1 4-16 45 45 0 0 1 22-23 42 42 0 0 1 16-3 45 45 0 0 1 16 3 42 42 0 0 1 14 9 42 42 0 0 1 0 59z m-23 296a115 115 0 0 1-99-55 42 42 0 1 1 72-42 32 32 0 0 0 27 14 31 31 0 1 0 0-63 42 42 0 1 1 0-83 115 115 0 1 1 0 229z m358-153a354 354 0 0 1-549 263 357 357 0 0 1-156-261 353 353 0 0 1 102-285l221-221a42 42 0 0 1 59 0l220 221a353 353 0 0 1 103 285z m-161-224l-192-192-192 192a270 270 0 0 0-78 217 274 274 0 0 0 121 202 270 270 0 0 0 298 0 274 274 0 0 0 121-201 270 270 0 0 0-78-218z" horiz-adv-x="1000" />

<glyph glyph-name="map-marker-shield" unicode="&#xe8da;" d="M600 578a93 93 0 0 0-75 16 42 42 0 0 1-50 0 93 93 0 0 0-75-16 42 42 0 0 1-35-8 42 42 0 0 1-16-33v-121a172 172 0 0 1 68-138l57-42a42 42 0 0 1 49 0l57 42a172 172 0 0 1 69 138v121a42 42 0 0 1-15 33 42 42 0 0 1-34 8z m-32-162a90 90 0 0 0-36-72l-32-24-32 24a90 90 0 0 0-35 72v77a176 176 0 0 1 67 19 176 176 0 0 1 68-19z m285 33a354 354 0 0 1-549 261 357 357 0 0 1-156-261 353 353 0 0 1 102-285l221-221a42 42 0 0 1 59 0l220 221a353 353 0 0 1 103 285z m-161-226l-192-192-192 192a270 270 0 0 0-78 217 274 274 0 0 0 121 202 270 270 0 0 0 298 0 274 274 0 0 0 121-201 270 270 0 0 0-78-218z" horiz-adv-x="1000" />

<glyph glyph-name="schedule" unicode="&#xe8db;" d="M500 267a42 42 0 1 1-42 41 42 42 0 0 1 42-41z m208 0a42 42 0 1 1-41 41 42 42 0 0 1 41-41z m-208-167a42 42 0 1 1-42 42 42 42 0 0 1 42-42z m208 0a42 42 0 1 1-41 42 42 42 0 0 1 41-42z m-416 167a42 42 0 1 1-42 41 42 42 0 0 1 42-41z m500 416h-42v42a42 42 0 0 1-83 0v-42h-334v42a42 42 0 0 1-83 0v-42h-42a125 125 0 0 1-125-125v-500a125 125 0 0 1 125-125h584a125 125 0 0 1 125 125v500a125 125 0 0 1-125 125z m41-625a42 42 0 0 0-41-41h-584a42 42 0 0 0-41 41v375h666z m0 459h-666v41a42 42 0 0 0 41 42h584a42 42 0 0 0 41-42z m-541-417a42 42 0 1 1-42 42 42 42 0 0 1 42-42z" horiz-adv-x="1000" />

<glyph glyph-name="calendar-alt" unicode="&#xe8dc;" d="M500 58a42 42 0 1 1-42 42 42 42 0 0 1 42-42z m208 0a42 42 0 1 1-41 42 42 42 0 0 1 41-42z m0 167a42 42 0 1 1-41 42 42 42 0 0 1 41-42z m-208 0a42 42 0 1 1-42 42 42 42 0 0 1 42-42z m292 500h-42v42a42 42 0 0 1-83 0v-42h-334v42a42 42 0 0 1-83 0v-42h-42a125 125 0 0 1-125-125v-583a125 125 0 0 1 125-125h584a125 125 0 0 1 125 125v583a125 125 0 0 1-125 125z m41-708a42 42 0 0 0-41-42h-584a42 42 0 0 0-41 42v375h666z m0 458h-666v125a42 42 0 0 0 41 42h42v-42a42 42 0 0 1 83 0v42h334v-42a42 42 0 0 1 83 0v42h42a42 42 0 0 0 41-42z m-541-250a42 42 0 1 1-42 42 42 42 0 0 1 42-42z m0-167a42 42 0 1 1-42 42 42 42 0 0 1 42-42z" horiz-adv-x="1000" />

<glyph glyph-name="crosshairs" unicode="&#xe8dd;" d="M875 392h-45a333 333 0 0 1-288 288v45a42 42 0 0 1-84 0v-45a333 333 0 0 1-288-288h-45a42 42 0 0 1 0-84h45a333 333 0 0 1 288-288v-45a42 42 0 0 1 84 0v45a333 333 0 0 1 288 288h45a42 42 0 0 1 0 84z m-375-292a250 250 0 1 0 250 250 250 250 0 0 0-250-250z m0 375a125 125 0 1 1 125-125 125 125 0 0 1-125 125z m0-167a42 42 0 1 0 42 42 42 42 0 0 0-42-42z" horiz-adv-x="1000" />

<glyph glyph-name="puzzle-piece" unicode="&#xe8de;" d="M708-67h-500a125 125 0 0 0-125 125v417a125 125 0 0 0 125 125h42a167 167 0 0 0 304 91 161 161 0 0 0 29-91h125a42 42 0 0 0 42-42v-125a167 167 0 0 0 91-304 161 161 0 0 0-91-29h0v-125a42 42 0 0 0-42-42z m-500 584a42 42 0 0 1-41-42v-417a42 42 0 0 1 41-41h459v132a42 42 0 0 0 17 34 42 42 0 0 0 38 6 74 74 0 0 1 73 9 83 83 0 0 1 38 57 83 83 0 0 1-20 67 79 79 0 0 1-90 23 42 42 0 0 0-38 5 42 42 0 0 0-17 34v133h-134a42 42 0 0 0-42 55 74 74 0 0 1-9 73 81 81 0 0 1-125 18 83 83 0 0 1-25-63 79 79 0 0 1 6-28 42 42 0 0 0-40-55z" horiz-adv-x="1000" />

<glyph glyph-name="gold" unicode="&#xe8df;" d="M333 392h334a42 42 0 0 1 32 15 42 42 0 0 1 9 35l-41 208a42 42 0 0 1-42 33h-250a42 42 0 0 1-42-33l-41-208a42 42 0 0 1 8-35 42 42 0 0 1 33-15z m76 208h182l25-125h-232z m508-325a42 42 0 0 1-42 33h-250a42 42 0 0 1-42-33l-41-208a42 42 0 0 1 8-35 42 42 0 0 1 33-15h334a42 42 0 0 1 32 15 42 42 0 0 1 9 35z m-283-175l25 125h182l25-125z m-259 208h-250a42 42 0 0 1-42-33l-41-208a42 42 0 0 1 8-35 42 42 0 0 1 33-15h334a42 42 0 0 1 32 15 42 42 0 0 1 9 35l-41 208a42 42 0 0 1-42 33z m-241-208l25 125h182l25-125z" horiz-adv-x="1000" />

<glyph glyph-name="compass" unicode="&#xe8e0;" d="M500 767a417 417 0 1 1 417-417 417 417 0 0 1-417 417z m42-747v38a42 42 0 0 1-84 0v-38a333 333 0 0 0-288 288h38a42 42 0 0 1 0 84h-38a333 333 0 0 0 288 288v-38a42 42 0 0 1 84 0v38a333 333 0 0 0 288-288h-38a42 42 0 0 1 0-84h38a333 333 0 0 0-288-288z m89 515l-208-88a42 42 0 0 1-22-22l-88-208a42 42 0 0 1 8-46 42 42 0 0 1 29-12 39 39 0 0 1 17 4l208 88a42 42 0 0 1 22 22l88 208a42 42 0 0 1-54 54z m-104-212l-95-42 42 95 95 42z" horiz-adv-x="1000" />

<glyph glyph-name="map" unicode="&#xe8e1;" d="M888 640l-250 83h-3a29 29 0 0 1-5 0h-10l-5 0h-3l-237-81-237 81a42 42 0 0 1-37-6 42 42 0 0 1-18-34v-583a42 42 0 0 1 29-40l250-83h0a42 42 0 0 1 25 0h0l238 79 237-81a50 50 0 0 1 13 0 39 39 0 0 1 24 8 42 42 0 0 1 18 34v583a42 42 0 0 1-29 40z m-555-565l-166 55v495l166-55z m250 55l-166-55v495l166 55z m250-55l-166 55v495l166-55z" horiz-adv-x="1000" />

<glyph glyph-name="location-point" unicode="&#xe8e2;" d="M750 663a352 352 0 0 1-500-500l220-220a42 42 0 0 1 59 0l221 222a352 352 0 0 1 0 498z m-60-438l-190-191-190 191a269 269 0 1 0 380 0z m-315 316a180 180 0 0 1 0-254 180 180 0 0 1 307 125 177 177 0 0 1-53 127 179 179 0 0 1-254 2z m195-195a97 97 0 1 0 28 68 97 97 0 0 0-30-68z" horiz-adv-x="1000" />

<glyph glyph-name="map-marker-info" unicode="&#xe8e3;" d="M500 433a42 42 0 0 1-42-41v-84a42 42 0 0 1 84 0v84a42 42 0 0 1-42 41z m353 14a354 354 0 0 1-549 263 357 357 0 0 1-156-261 353 353 0 0 1 102-285l221-221a42 42 0 0 1 59 0l220 221a353 353 0 0 1 103 285z m-161-224l-192-192-192 192a270 270 0 0 0-78 217 274 274 0 0 0 121 202 270 270 0 0 0 298 0 274 274 0 0 0 121-201 270 270 0 0 0-78-218z m-154 312a23 23 0 0 1-3 7l-5 6a42 42 0 0 1-38 10l-8 0-7-3-7-6-5-6a23 23 0 0 1-3-7 25 25 0 0 1-3-8 51 51 0 0 1-1-11 37 37 0 0 1 4-17 46 46 0 0 1 8-13 44 44 0 0 1 14-9 45 45 0 0 1 32 0 50 50 0 0 1 14 9 46 46 0 0 1 8 13 42 42 0 0 1 4 17 51 51 0 0 1 0 8 25 25 0 0 1-4 10z" horiz-adv-x="1000" />

<glyph glyph-name="map-marker-edit" unicode="&#xe8e4;" d="M853 449a354 354 0 1 1-603-285l221-221a42 42 0 0 1 59 0l220 221a353 353 0 0 1 103 285z m-161-226l-192-192-192 192a270 270 0 0 0-78 217 274 274 0 0 0 121 202 270 270 0 0 0 298 0 274 274 0 0 0 121-201 270 270 0 0 0-78-218z m-117 367a42 42 0 0 1-60 0l-149-150a42 42 0 0 1-12-29v-103a42 42 0 0 1 42-41h101a42 42 0 0 1 29 12l149 149a42 42 0 0 1 0 59z m-95-240h-42v42l107 107 42-41z" horiz-adv-x="1000" />

<glyph glyph-name="map-marker-plus" unicode="&#xe8e5;" d="M583 456h-41v42a42 42 0 0 1-84 0v-42h-41a42 42 0 0 1 0-83h41v-42a42 42 0 0 1 84 0v42h41a42 42 0 0 1 0 83z m269-7a354 354 0 1 1-602-285l221-221a42 42 0 0 1 59 0l220 221a353 353 0 0 1 103 285z m-160-226l-192-192-192 192a270 270 0 0 0-78 217 274 274 0 0 0 121 202 270 270 0 0 0 298 0 274 274 0 0 0 121-201 270 270 0 0 0-78-218z" horiz-adv-x="1000" />

<glyph glyph-name="map-pin" unicode="&#xe8e6;" d="M682 317a42 42 0 0 1-31-77c61-25 99-62 99-98 0-59-102-125-250-125s-250 66-250 125c0 36 38 73 99 98a42 42 0 0 1-31 77c-95-37-151-103-151-175 0-117 146-209 333-209s333 92 333 209c0 72-56 138-151 175z m-224 122v-297a42 42 0 0 1 84 0v297a167 167 0 1 1-84 0z m42 244a83 83 0 1 0-83-83 83 83 0 0 0 83 83z" horiz-adv-x="1000" />

<glyph glyph-name="navigator" unicode="&#xe8e7;" d="M840 465l-583 241a125 125 0 0 1-167-154l65-202-66-202a125 125 0 0 1 33-131 125 125 0 0 1 84-34 125 125 0 0 1 48 10l585 241a125 125 0 0 1 0 231z m-617-394a42 42 0 0 0-44 8 42 42 0 0 0-11 41l61 188h572z m6 321l-62 186a42 42 0 0 0 11 42 42 42 0 0 0 30 13 42 42 0 0 0 17-4l576-237z" horiz-adv-x="1000" />

<glyph glyph-name="location-pin-alt" unicode="&#xe8e8;" d="M500 400a83 83 0 1 1-83 83 83 83 0 0 1 83-83z m-30-288a42 42 0 0 1 60 0l170 171a283 283 0 1 1-400 0z m-169 391a200 200 0 0 0 89 147 200 200 0 0 0 220 0 201 201 0 0 0 31-308l-141-142-141 142a199 199 0 0 0-58 161z m491-486h-584a42 42 0 0 1 0-84h584a42 42 0 0 1 0 84z" horiz-adv-x="1000" />

<glyph glyph-name="map-marker-minus" unicode="&#xe8e9;" d="M583 456h-166a42 42 0 0 1 0-83h166a42 42 0 0 1 0 83z m269-7a354 354 0 1 1-602-285l221-221a42 42 0 0 1 59 0l220 221a353 353 0 0 1 103 285z m-160-226l-192-192-192 192a270 270 0 0 0-78 217 274 274 0 0 0 121 202 270 270 0 0 0 298 0 274 274 0 0 0 121-201 270 270 0 0 0-78-218z" horiz-adv-x="1000" />

<glyph glyph-name="map-marker-alt" unicode="&#xe8ea;" d="M853 449a354 354 0 0 1-549 261 357 357 0 0 1-156-261 353 353 0 0 1 102-285l221-221a42 42 0 0 1 59 0l220 221a353 353 0 0 1 103 285z m-161-226l-192-192-192 192a270 270 0 0 0-78 217 274 274 0 0 0 121 202 270 270 0 0 0 298 0 274 274 0 0 0 121-201 270 270 0 0 0-78-218z m-192 377a188 188 0 1 1 188-187 188 188 0 0 1-188 187z m0-292a104 104 0 1 0 104 105 104 104 0 0 0-104-105z" horiz-adv-x="1000" />

<glyph glyph-name="sign-left" unicode="&#xe8eb;" d="M667 642h-125v83a42 42 0 0 1-84 0v-83h-208a42 42 0 0 1-32-16l-84-104a42 42 0 0 1 0-52l84-104a42 42 0 0 1 32-16h208v-333h-83a42 42 0 0 1 0-84h250a42 42 0 0 1 0 84h-83v333h125a42 42 0 0 1 41 42v208a42 42 0 0 1-41 42z m-42-209h-355l-50 63 50 62h355z" horiz-adv-x="1000" />

<glyph glyph-name="map-marker" unicode="&#xe8ec;" d="M500 767a333 333 0 0 1-333-334c0-225 293-479 306-490a42 42 0 0 1 54 0c15 11 306 265 306 490a333 333 0 0 1-333 334z m0-736c-89 84-250 263-250 402a250 250 0 0 0 500 0c0-139-161-319-250-402z m0 569a167 167 0 1 1 167-167 167 167 0 0 1-167 167z m0-250a83 83 0 1 0 83 83 83 83 0 0 0-83-83z" horiz-adv-x="1000" />

<glyph glyph-name="sign-right" unicode="&#xe8ed;" d="M292 600v-208a42 42 0 0 1 41-42h125v-333h-83a42 42 0 0 1 0-84h250a42 42 0 0 1 0 84h-83v333h208a42 42 0 0 1 33 15l83 105a42 42 0 0 1 0 52l-83 104a42 42 0 0 1-33 16h-208v83a42 42 0 0 1-84 0v-83h-125a42 42 0 0 1-41-42z m83-42h355l50-62-50-63h-355z" horiz-adv-x="1000" />

<glyph glyph-name="directions" unicode="&#xe8ee;" d="M880 438l-292 292a128 128 0 0 1-176 0l-292-292a125 125 0 0 1 0-176l292-292a125 125 0 0 1 176 0l292 292a125 125 0 0 1 0 176z m-59-118l-291-291a42 42 0 0 0-60 0h0l-291 291a42 42 0 0 0 0 60l291 291a42 42 0 0 0 60 0l291-291a42 42 0 0 0 0-60z m-229 143a42 42 0 0 1-59-59l12-12h-149a42 42 0 0 1-42-42v-83a42 42 0 0 1 83 0v41h108l-12-12a42 42 0 0 1 0-59 42 42 0 0 1 59 0l83 83a42 42 0 0 1 0 60z" horiz-adv-x="1000" />

<glyph glyph-name="location-arrow" unicode="&#xe8ef;" d="M881 731a120 120 0 0 1-125 29l-589-197a121 121 0 0 1-5-228l218-83h0a39 39 0 0 0 22-22l83-218a120 120 0 0 1 113-79h3a120 120 0 0 1 112 84l197 590a120 120 0 0 1-29 124z m-48-98l-199-590a37 37 0 0 0-35-26 38 38 0 0 0-36 24l-83 219a121 121 0 0 1-70 70l-219 83a38 38 0 0 0-24 36 37 37 0 0 0 26 35l590 197a38 38 0 0 0 50-48z" horiz-adv-x="1000" />
</font>
</defs>
</svg>
